alpha754293

.bin CD images

Recommended Posts

I remember asking about it before but I think that the search string is too short. In any case, are there any programs that people know of that would be able to read them?

Thanks.

Share this post


Link to post
Share on other sites

FILE "filename.bin" BINARY
 TRACK 01 MODE1/2352
   INDEX 01 00:00:00

Just drop that into a text file, change filename.bin as necessary, and you're good to go. This is assuming, of course, that there is only a single data track in the image, but that's almost always the case.

Share this post


Link to post
Share on other sites

I think Daemon Tools will mount a bin file, too.

--Rick

Share this post


Link to post
Share on other sites
FILE "filename.bin" BINARY
 TRACK 01 MODE1/2352
   INDEX 01 00:00:00

Just drop that into a text file, change filename.bin as necessary, and you're good to go. This is assuming, of course, that there is only a single data track in the image, but that's almost always the case.

What program does that code work with or how do I use it? *scratching my head*

Share this post


Link to post
Share on other sites

Alcohol 120% also mounts just about everything.

Share this post


Link to post
Share on other sites
FILE "filename.bin" BINARY
 TRACK 01 MODE1/2352
   INDEX 01 00:00:00

Just drop that into a text file, change filename.bin as necessary, and you're good to go. This is assuming, of course, that there is only a single data track in the image, but that's almost always the case.

What program does that code work with or how do I use it? *scratching my head*

What he means is that the .cue file is nothing more than a simple ASCII file containing those three lines of code. (Well, 98% of .cue files anyway)

Just create a .cue file with Notepad, paste that text into it, modify the "filename.bin" as necessary and save it with a .cue extension. (Caution: Windows has a tendency to add an additional .txt extension anyway)

JD

Share this post


Link to post
Share on other sites

Create an account or sign in to comment

You need to be a member in order to leave a comment

Create an account

Sign up for a new account in our community. It's easy!

Register a new account

Sign in

Already have an account? Sign in here.

Sign In Now